<?xml version="1.0" standalone="no"?>
<!DOCTYPE svg PUBLIC "-//W3C//DTD SVG 1.1//EN" "http://www.w3.org/Graphics/SVG/1.1/DTD/svg11.dtd" >
<svg xmlns="http://www.w3.org/2000/svg">
<metadata>Generated by IcoMoon</metadata>
<defs>
<font id="cloudvideo" horiz-adv-x="1024">
<font-face units-per-em="1024" ascent="960" descent="-64" />
<missing-glyph horiz-adv-x="1024" />
<glyph unicode="&#x20;" horiz-adv-x="512" d="" />
<glyph unicode="&#xe900;" glyph-name="arrow-clockwise" d="M896.8 785.2c17.672 0 32-14.327 32-32v-192c0-17.672-14.328-32-32-32h-192c-17.672 0-32 14.328-32 32s14.328 32 32 32h160v160c0 17.673 14.328 32 32 32zM574.32 761.832c-62.080 12.368-126.432 6.047-184.922-18.166-58.488-24.212-108.48-65.228-143.654-117.857s-53.948-114.51-53.948-177.81c0-63.3 18.774-125.18 53.948-177.808 35.174-52.632 85.166-93.648 143.654-117.86 58.49-24.212 122.842-30.532 184.922-18.164 62.084 12.368 119.1 42.872 163.844 87.648 12.492 12.504 32.752 12.512 45.256 0.020 12.5-12.492 12.508-32.752 0.016-45.256-53.692-53.732-122.112-90.336-196.608-105.18-74.5-14.84-151.724-7.256-221.909 21.8s-130.176 78.272-172.384 141.428c-42.208 63.156-64.738 137.412-64.738 213.372s22.529 150.216 64.738 213.371c42.208 63.156 102.199 112.374 172.384 141.428s147.409 36.641 221.909 21.799c74.488-14.84 142.904-51.438 196.592-105.163 0.004-0.006 0.012-0.012 0.016-0.017l135.96-135.558c12.512-12.478 12.544-32.74 0.064-45.256-12.476-12.512-32.74-12.544-45.256-0.064l-136.040 135.642c-44.744 44.779-101.76 75.282-163.844 87.65z" />
<glyph unicode="&#xe901;" glyph-name="arrow-counter-clockwise" d="M127.199 785.2c17.673 0 32-14.327 32-32v-160h160c17.673 0 32-14.327 32-32s-14.327-32-32-32h-192c-17.673 0-32 14.328-32 32v192c0 17.673 14.327 32 32 32zM437.172 824.598c74.496 14.842 151.724 7.256 221.908-21.799s130.176-78.273 172.384-141.428c42.208-63.155 64.74-137.411 64.74-213.371s-22.532-150.216-64.74-213.372c-42.208-63.156-102.2-112.372-172.384-141.428s-147.412-36.64-221.908-21.8c-74.497 14.844-142.918 51.448-196.61 105.18-12.492 12.504-12.483 32.764 0.019 45.256s32.763 12.484 45.255-0.020c44.742-44.776 101.76-75.28 163.84-87.648 62.084-12.368 126.436-6.048 184.924 18.164s108.48 65.228 143.656 117.86c35.172 52.628 53.948 114.508 53.948 177.808s-18.776 125.18-53.948 177.81c-35.176 52.629-85.168 93.644-143.656 117.857s-122.84 30.534-184.924 18.166c-62.080-12.368-119.098-42.872-163.84-87.65l-0.043-0.042-136-135.599c-12.515-12.48-32.776-12.448-45.255 0.064-12.478 12.516-12.448 32.778 0.067 45.256l135.957 135.558c0.007 0.007 0.014 0.014 0.022 0.022 53.688 53.723 122.101 90.319 196.588 105.159z" />
<glyph unicode="&#xe902;" glyph-name="caret-double-down" d="M169.372 470.628c12.497 12.496 32.758 12.496 45.255 0l297.372-297.372 297.372 297.372c12.496 12.496 32.76 12.496 45.256 0s12.496-32.76 0-45.256l-320-320c-12.496-12.496-32.76-12.496-45.256 0l-320 320c-12.496 12.496-12.496 32.76 0 45.256zM169.372 790.628c12.497 12.496 32.758 12.496 45.255 0l297.372-297.372 297.372 297.372c12.496 12.496 32.76 12.496 45.256 0s12.496-32.758 0-45.255l-320-320c-12.496-12.496-32.76-12.496-45.256 0l-320 320c-12.496 12.497-12.496 32.758 0 45.255z" />
<glyph unicode="&#xe903;" glyph-name="caret-double-left" d="M822.628 790.628c12.496-12.497 12.496-32.758 0-45.255l-297.372-297.372 297.372-297.372c12.496-12.496 12.496-32.76 0-45.256s-32.76-12.496-45.256 0l-320 320c-12.496 12.496-12.496 32.76 0 45.256l320 320c12.496 12.496 32.76 12.496 45.256 0zM502.628 790.628c12.496-12.497 12.496-32.758 0-45.255l-297.373-297.372 297.373-297.372c12.496-12.496 12.496-32.76 0-45.256s-32.76-12.496-45.256 0l-320 320c-12.496 12.496-12.496 32.76 0 45.256l320 320c12.496 12.496 32.76 12.496 45.256 0z" />
<glyph unicode="&#xe904;" glyph-name="caret-double-right" d="M201.372 790.628c12.497 12.496 32.758 12.496 45.255 0l320-320c12.496-12.496 12.496-32.76 0-45.256l-320-320c-12.497-12.496-32.758-12.496-45.255 0s-12.496 32.76 0 45.256l297.372 297.372-297.372 297.372c-12.496 12.497-12.496 32.758 0 45.255zM521.372 790.628c12.496 12.496 32.76 12.496 45.256 0l320-320c12.496-12.496 12.496-32.76 0-45.256l-320-320c-12.496-12.496-32.76-12.496-45.256 0s-12.496 32.76 0 45.256l297.372 297.372-297.372 297.372c-12.496 12.497-12.496 32.758 0 45.255z" />
<glyph unicode="&#xe905;" glyph-name="caret-double-up" d="M489.372 470.628c12.496 12.496 32.76 12.496 45.256 0l320-320c12.496-12.496 12.496-32.76 0-45.256s-32.76-12.496-45.256 0l-297.372 297.372-297.372-297.372c-12.497-12.496-32.758-12.496-45.255 0s-12.496 32.76 0 45.256l320 320zM489.372 790.628c12.496 12.496 32.76 12.496 45.256 0l320-320c12.496-12.496 12.496-32.76 0-45.256s-32.76-12.496-45.256 0l-297.372 297.373-297.372-297.373c-12.497-12.496-32.758-12.496-45.255 0s-12.496 32.76 0 45.256l320 320z" />
<glyph unicode="&#xe906;" glyph-name="caret-down" d="M169.372 598.628c12.497 12.496 32.758 12.496 45.255 0l297.372-297.372 297.372 297.372c12.496 12.496 32.76 12.496 45.256 0s12.496-32.758 0-45.256l-320-320c-12.496-12.496-32.76-12.496-45.256 0l-320 320c-12.496 12.497-12.496 32.759 0 45.256z" />
<glyph unicode="&#xe907;" glyph-name="caret-left" d="M662.628 790.628c12.496-12.497 12.496-32.758 0-45.255l-297.373-297.372 297.373-297.372c12.496-12.496 12.496-32.76 0-45.256s-32.76-12.496-45.256 0l-320 320c-12.496 12.496-12.496 32.76 0 45.256l320 320c12.496 12.496 32.76 12.496 45.256 0z" />
<glyph unicode="&#xe908;" glyph-name="caret-right" d="M361.372 790.628c12.497 12.496 32.758 12.496 45.256 0l320-320c12.496-12.496 12.496-32.76 0-45.256l-320-320c-12.497-12.496-32.759-12.496-45.256 0s-12.496 32.76 0 45.256l297.372 297.372-297.372 297.372c-12.496 12.497-12.496 32.758 0 45.255z" />
<glyph unicode="&#xe909;" glyph-name="caret-up" d="M489.372 662.628c12.496 12.496 32.76 12.496 45.256 0l320-320c12.496-12.496 12.496-32.76 0-45.256s-32.76-12.496-45.256 0l-297.372 297.373-297.372-297.373c-12.497-12.496-32.758-12.496-45.255 0s-12.496 32.76 0 45.256l320 320z" />
<glyph unicode="&#xe90a;" glyph-name="clock" d="M512 800c-194.404 0-352-157.596-352-352s157.596-352 352-352c194.404 0 352 157.596 352 352s-157.596 352-352 352zM96 448c0 229.75 186.25 416 416 416 229.752 0 416-186.25 416-416 0-229.752-186.248-416-416-416-229.75 0-416 186.248-416 416zM512 704c17.672 0 32-14.327 32-32v-192h192c17.672 0 32-14.328 32-32s-14.328-32-32-32h-224c-17.672 0-32 14.328-32 32v224c0 17.673 14.328 32 32 32z" />
<glyph unicode="&#xe90b;" glyph-name="cloud-arrow-down" d="M449.772 286.228c12.496 12.496 32.76 12.496 45.256 0l112.972-112.972 112.972 112.972c12.496 12.496 32.76 12.496 45.256 0s12.496-32.76 0-45.256l-135.6-135.6c-12.496-12.496-32.76-12.496-45.256 0l-135.6 135.6c-12.496 12.496-12.496 32.76 0 45.256zM608 480c17.672 0 32-14.328 32-32v-320c0-17.672-14.328-32-32-32s-32 14.328-32 32v320c0 17.672 14.328 32 32 32zM335.876 538.148c-15.657 3.892-31.731 5.86-47.864 5.852h-0.012c-50.922 0-99.758-20.228-135.764-56.236s-56.236-84.844-56.236-135.764c0-50.92 20.228-99.756 56.236-135.764s84.843-56.236 135.764-56.236h96c17.672 0 32-14.328 32-32s-14.328-32-32-32h-96c-67.896 0-133.010 26.972-181.019 74.98s-74.981 113.124-74.981 181.020c0 67.896 26.971 133.008 74.981 181.020 48.006 48.006 113.116 74.977 181.007 74.98zM288 608c21.344 0.007 42.61-2.594 63.324-7.746 17.151-4.266 27.596-21.627 23.33-38.778s-21.627-27.596-38.778-23.328zM731.072 721.221c-43.292 14.431-89.392 18.367-134.504 11.485s-87.944-24.386-124.964-51.068c-37.020-26.683-67.172-61.781-87.965-102.402-20.795-40.62-31.639-85.6-31.639-131.236 0-17.672-14.327-32-32-32s-32 14.328-32 32c0 55.776 13.254 110.752 38.67 160.4s62.265 92.545 107.51 125.158c45.248 32.612 97.6 54.006 152.736 62.417s111.484 3.6 164.396-14.038c52.912-17.638 100.876-47.596 139.94-87.408s68.108-88.335 84.736-141.572c16.632-53.24 20.372-109.668 10.916-164.636s-31.84-106.9-65.304-151.52c-10.604-14.14-30.66-17.004-44.8-6.4s-17.004 30.66-6.4 44.8c27.38 36.508 45.692 79 53.432 123.972 7.736 44.972 4.676 91.14-8.932 134.7-13.608 43.559-37.368 83.26-69.332 115.833-31.96 32.573-71.204 57.085-114.496 71.516z" />
<glyph unicode="&#xe90c;" glyph-name="facebook-logo" d="M512 800c-194.404 0-352-157.596-352-352s157.596-352 352-352c194.404 0 352 157.596 352 352s-157.596 352-352 352zM96 448c0 229.75 186.25 416 416 416 229.752 0 416-186.25 416-416 0-229.752-186.248-416-416-416-229.75 0-416 186.248-416 416zM608.064 640h63.936c17.672 0 32-14.327 32-32s-14.328-32-32-32h-64.136c-8.396 0.035-16.716-1.593-24.48-4.79s-14.82-7.9-20.756-13.839c-5.94-5.936-10.64-12.992-13.84-20.756-3.196-7.764-4.824-16.084-4.788-24.48v-448.136c0-17.672-14.328-32-32-32s-32 14.328-32 32v447.936c-0.060 16.824 3.204 33.492 9.608 49.048 6.416 15.578 15.852 29.731 27.764 41.644s26.068 21.348 41.644 27.762c15.556 6.405 32.224 9.671 49.048 9.61zM352 384c0 17.672 14.327 32 32 32h256c17.672 0 32-14.328 32-32s-14.328-32-32-32h-256c-17.673 0-32 14.328-32 32z" />
<glyph unicode="&#xe90d;" glyph-name="flag" d="M160 800c17.673 0 32-14.327 32-32v-672c0-17.672-14.327-32-32-32s-32 14.328-32 32v672c0 17.673 14.327 32 32 32zM685.292 745.83c50.168-5.19 102.1 4.712 159.508 47.77 9.696 7.272 22.668 8.442 33.512 3.022 10.84-5.421 17.688-16.501 17.688-28.622v-480c0-10.072-4.744-19.556-12.8-25.6-70.592-52.944-138.66-67.040-204.492-60.232-62.864 6.504-122.66 32.136-177.136 55.488l-2.176 0.932c-56.94 24.404-108.391 46.172-160.689 51.58-50.167 5.192-102.098-4.712-159.507-47.768-14.138-10.604-34.196-7.74-44.8 6.4s-7.738 34.196 6.4 44.8c70.59 52.944 138.66 67.040 204.493 60.228 62.863-6.5 122.659-32.132 177.135-55.484l2.176-0.932c56.94-24.404 108.392-46.172 160.688-51.584 46.412-4.8 94.336 3.316 146.708 38.652v405.856c-52.46-26.512-103.516-33.316-153.292-28.167-62.864 6.503-122.66 32.134-177.136 55.485l-2.176 0.933c-56.94 24.403-108.391 46.172-160.689 51.582-50.167 5.19-102.098-4.712-159.507-47.77-14.138-10.604-34.196-7.739-44.8 6.4s-7.738 34.196 6.4 44.8c70.59 52.942 138.66 67.040 204.493 60.23 62.863-6.503 122.659-32.134 177.135-55.485l2.176-0.933c56.94-24.403 108.392-46.172 160.688-51.582z" />
<glyph unicode="&#xe90e;" glyph-name="gear-six" d="M512 608c-88.364 0-160-71.636-160-160s71.636-160 160-160c88.364 0 160 71.636 160 160s-71.636 160-160 160zM288 448c0 123.712 100.288 224 224 224s224-100.288 224-224c0-123.712-100.288-224-224-224s-224 100.288-224 224zM374.969 874.852c8.789 2.837 18.375 1.739 26.295-3.013l93.54-56.124c11.464 0.512 22.948 0.512 34.412-0.001l93.152 55.744c7.852 4.7 17.344 5.812 26.072 3.054 61.128-19.313 117.332-51.68 164.712-94.862 6.796-6.19 10.596-15.002 10.444-24.19l-1.832-108.729c6.316-9.7 12.112-19.73 17.364-30.045l94.82-52.719c7.984-4.44 13.692-12.080 15.684-20.996 13.948-62.484 14.096-127.256 0.428-189.804-1.964-8.992-7.704-16.704-15.756-21.16l-95.188-52.72c-5.248-10.308-11.040-20.328-17.352-30.020l1.832-108.728c0.152-9.192-3.652-18.004-10.444-24.192-47.284-43.088-103.244-75.548-164.124-95.2-8.788-2.84-18.372-1.74-26.292 3.012l-93.54 56.124c-11.464-0.512-22.948-0.512-34.416 0l-93.148-55.744c-7.855-4.7-17.345-5.812-26.073-3.052-61.13 19.312-117.331 51.68-164.714 94.86-6.793 6.192-10.596 15.004-10.441 24.192l1.833 108.484c-6.28 9.8-12.070 19.904-17.349 30.28l-94.838 52.728c-7.984 4.44-13.691 12.080-15.682 20.996-13.95 62.48-14.098 127.256-0.431 189.804 1.965 8.992 7.706 16.7 15.758 21.161l95.189 52.72c5.247 10.307 11.039 20.327 17.35 30.019l-1.831 108.729c-0.154 9.189 3.649 18.001 10.442 24.191 47.284 43.087 103.246 75.548 164.123 95.2zM264.644 741.733l1.751-103.995c0.113-6.737-1.903-13.338-5.762-18.862-8.583-12.288-16.098-25.29-22.461-38.861-2.861-6.101-7.574-11.144-13.469-14.408l-91.018-50.41c-7.961-44.448-7.851-89.968 0.326-134.38l90.738-50.448c5.85-3.252 10.533-8.26 13.39-14.312 6.503-13.78 14.088-27.024 22.683-39.604 3.738-5.472 5.684-11.968 5.573-18.592l-1.75-103.588c34.588-29.22 74.141-51.996 116.775-67.24l88.948 53.228c5.632 3.368 12.168 4.928 18.716 4.46 15.256-1.092 30.572-1.092 45.832 0 6.56 0.468 13.108-1.096 18.748-4.48l89.232-53.54c42.496 15.488 81.92 38.36 116.46 67.568l-1.752 103.992c-0.112 6.74 1.904 13.34 5.76 18.864 8.584 12.288 16.1 25.288 22.46 38.86 2.864 6.1 7.576 11.144 13.472 14.408l91.016 50.412c7.964 44.448 7.852 89.968-0.324 134.38l-90.74 50.448c-5.872 3.266-10.568 8.298-13.424 14.383-6.36 13.572-13.876 26.573-22.46 38.861-3.856 5.524-5.872 12.125-5.76 18.862l1.752 103.99c-34.588 29.219-74.144 51.994-116.776 67.24l-88.948-53.228c-5.632-3.371-12.168-4.928-18.716-4.46-15.26 1.092-30.576 1.092-45.832 0-6.564-0.469-13.108 1.095-18.748 4.479l-89.234 53.54c-42.495-15.488-81.921-38.362-116.458-67.567z" />
<glyph unicode="&#xe90f;" glyph-name="grid-four" d="M144 752c0 35.346 28.654 64 64 64h608c35.348 0 64-28.654 64-64v-608c0-35.348-28.652-64-64-64h-608c-35.346 0-64 28.652-64 64v608zM816 752h-608v-608h608v608zM512 816c17.672 0 32-14.327 32-32v-672c0-17.672-14.328-32-32-32s-32 14.328-32 32v672c0 17.673 14.328 32 32 32zM144 448c0 17.672 14.327 32 32 32h672c17.672 0 32-14.328 32-32s-14.328-32-32-32h-672c-17.673 0-32 14.328-32 32z" />
<glyph unicode="&#xe910;" glyph-name="heart" d="M402.724 747.348c35.912-19.124 64.088-50.099 79.736-87.656l29.54 12.308 29.54-12.308c15.648 37.557 43.824 68.532 79.736 87.656 35.916 19.123 77.344 25.213 117.24 17.234s75.796-29.535 101.592-61c25.796-31.465 39.892-70.895 39.892-111.582 0-121.272-90.304-237.020-189.408-326.216-48.584-43.724-97.312-79.312-133.964-103.992-18.296-12.316-33.504-21.864-44.076-28.3-0.184-0.112-0.368-0.224-0.552-0.336-0.184 0.112-0.368 0.224-0.552 0.336-10.572 6.436-25.78 15.984-44.076 28.3-36.652 24.68-85.381 60.268-133.965 103.992-99.104 89.196-189.407 204.944-189.407 326.216 0 40.687 14.097 80.117 39.892 111.582s61.695 53.021 101.592 61c39.897 7.979 81.326 1.889 117.24-17.234zM512 736c-20.964 27.954-47.932 51.19-79.196 67.838-48.973 26.077-105.467 34.382-159.872 23.501s-103.359-40.276-138.534-83.182c-35.175-42.907-54.398-96.675-54.398-152.158 0-150.728 109.697-282.98 210.593-373.784 51.416-46.276 102.686-83.688 141.035-109.508 19.204-12.932 35.248-23.008 46.548-29.888 5.652-3.44 10.128-6.084 13.22-7.888 1.548-0.9 2.752-1.592 3.588-2.072 0.2-0.112 0.376-0.212 0.536-0.3 0.172-0.1 0.32-0.184 0.44-0.252l0.276-0.156 0.084-0.044 0.024-0.016c0.012-0.008 0.020-0.012 15.656 27.908l-15.636-27.92c9.716-5.44 21.556-5.44 31.272 0l-15.636 27.92c15.636-27.92 15.644-27.916 15.656-27.908l0.024 0.016 0.084 0.044 0.276 0.156c0.232 0.132 0.556 0.316 0.976 0.552 0.836 0.48 2.040 1.172 3.588 2.072 3.092 1.804 7.568 4.448 13.22 7.888 11.3 6.88 27.344 16.956 46.548 29.888 38.348 25.82 89.62 63.232 141.036 109.508 100.896 90.804 210.592 223.056 210.592 373.784 0 55.482-19.224 109.251-54.396 152.158-35.176 42.906-84.132 72.301-138.536 83.182s-110.9 2.576-159.872-23.501c-31.264-16.648-58.232-39.884-79.196-67.838z" />
<glyph unicode="&#xe911;" glyph-name="linkedin-logo" d="M112 784c0 35.346 28.654 64 64 64h672c35.348 0 64-28.654 64-64v-672c0-35.348-28.652-64-64-64h-672c-35.346 0-64 28.652-64 64v672zM848 784h-672v-672h672v672zM480 544c17.672 0 32-14.328 32-32v-256c0-17.672-14.328-32-32-32s-32 14.328-32 32v256c0 17.672 14.328 32 32 32zM352 544c17.673 0 32-14.328 32-32v-256c0-17.672-14.327-32-32-32s-32 14.328-32 32v256c0 17.672 14.327 32 32 32zM592 480c-21.216 0-41.564-8.428-56.568-23.432s-23.432-35.352-23.432-56.568c0-17.672-14.328-32-32-32s-32 14.328-32 32c0 38.192 15.172 74.82 42.176 101.824s63.632 42.176 101.824 42.176c38.192 0 74.82-15.172 101.824-42.176s42.176-63.632 42.176-101.824v-144c0-17.672-14.328-32-32-32s-32 14.328-32 32v144c0 21.216-8.428 41.564-23.432 56.568s-35.352 23.432-56.568 23.432zM352 592c26.51 0 48 21.49 48 48s-21.49 48-48 48c-26.51 0-48-21.49-48-48s21.49-48 48-48z" />
<glyph unicode="&#xe912;" glyph-name="list" d="M128 448c0 17.672 14.327 32 32 32h704c17.672 0 32-14.328 32-32s-14.328-32-32-32h-704c-17.673 0-32 14.328-32 32zM128 704c0 17.673 14.327 32 32 32h704c17.672 0 32-14.327 32-32s-14.328-32-32-32h-704c-17.673 0-32 14.327-32 32zM128 192c0 17.672 14.327 32 32 32h704c17.672 0 32-14.328 32-32s-14.328-32-32-32h-704c-17.673 0-32 14.328-32 32z" />
<glyph unicode="&#xe913;" glyph-name="list-dashes" d="M352 704c0 17.673 14.327 32 32 32h480c17.672 0 32-14.327 32-32s-14.328-32-32-32h-480c-17.673 0-32 14.327-32 32zM352 448c0 17.672 14.327 32 32 32h480c17.672 0 32-14.328 32-32s-14.328-32-32-32h-480c-17.673 0-32 14.328-32 32zM352 192c0 17.672 14.327 32 32 32h480c17.672 0 32-14.328 32-32s-14.328-32-32-32h-480c-17.673 0-32 14.328-32 32zM128 704c0 17.673 14.327 32 32 32h64c17.673 0 32-14.327 32-32s-14.327-32-32-32h-64c-17.673 0-32 14.327-32 32zM128 448c0 17.672 14.327 32 32 32h64c17.673 0 32-14.328 32-32s-14.327-32-32-32h-64c-17.673 0-32 14.328-32 32zM128 192c0 17.672 14.327 32 32 32h64c17.673 0 32-14.328 32-32s-14.327-32-32-32h-64c-17.673 0-32 14.328-32 32z" />
<glyph unicode="&#xe914;" glyph-name="magnifying-glass" d="M464 800c-167.894 0-304-136.106-304-304 0-167.896 136.106-304 304-304 167.896 0 304 136.104 304 304 0 167.894-136.104 304-304 304zM96 496c0 203.241 164.759 368 368 368s368-164.759 368-368c0-203.24-164.76-368-368-368s-368 164.76-368 368zM678.972 281.028c12.496 12.496 32.76 12.496 45.256 0l194.4-194.4c12.496-12.496 12.496-32.76 0-45.256s-32.76-12.496-45.256 0l-194.4 194.4c-12.496 12.496-12.496 32.76 0 45.256z" />
<glyph unicode="&#xe915;" glyph-name="minus" d="M128 448c0 17.672 14.327 32 32 32h704c17.672 0 32-14.328 32-32s-14.328-32-32-32h-704c-17.673 0-32 14.328-32 32z" />
<glyph unicode="&#xe916;" glyph-name="minus-circle" d="M512 800c-194.404 0-352-157.596-352-352s157.596-352 352-352c194.404 0 352 157.596 352 352s-157.596 352-352 352zM96 448c0 229.75 186.25 416 416 416 229.752 0 416-186.25 416-416 0-229.752-186.248-416-416-416-229.75 0-416 186.248-416 416zM320 448c0 17.672 14.327 32 32 32h320c17.672 0 32-14.328 32-32s-14.328-32-32-32h-320c-17.673 0-32 14.328-32 32z" />
<glyph unicode="&#xe917;" glyph-name="pause" d="M592 768c0 35.346 28.652 64 64 64h144c35.348 0 64-28.654 64-64v-640c0-35.348-28.652-64-64-64h-144c-35.348 0-64 28.652-64 64v640zM800 768h-144v-640h144v640zM160 768c0 35.346 28.654 64 64 64h144c35.348 0 64-28.654 64-64v-640c0-35.348-28.652-64-64-64h-144c-35.346 0-64 28.652-64 64v640zM368 768h-144v-640h144v640z" />
<glyph unicode="&#xe918;" glyph-name="pause-circle" d="M512 800c-194.404 0-352-157.596-352-352s157.596-352 352-352c194.404 0 352 157.596 352 352s-157.596 352-352 352zM96 448c0 229.75 186.25 416 416 416 229.752 0 416-186.25 416-416 0-229.752-186.248-416-416-416-229.75 0-416 186.248-416 416zM416 608c17.672 0 32-14.327 32-32v-256c0-17.672-14.328-32-32-32s-32 14.328-32 32v256c0 17.673 14.327 32 32 32zM608 608c17.672 0 32-14.327 32-32v-256c0-17.672-14.328-32-32-32s-32 14.328-32 32v256c0 17.673 14.328 32 32 32z" />
<glyph unicode="&#xe919;" glyph-name="play" d="M288.841 855.868c9.946 5.544 21.19 8.333 32.574 8.082 11.36-0.251 22.447-3.522 32.123-9.476 0.020-0.012 0.041-0.025 0.062-0.038l575.328-351.831c9.404-5.62 17.2-13.572 22.632-23.092 5.476-9.6 8.356-20.46 8.356-31.512s-2.88-21.912-8.356-31.512c-5.432-9.52-13.228-17.472-22.632-23.092l-575.328-351.832c-0.024-0.012-0.048-0.028-0.072-0.044-9.674-5.948-20.758-9.216-32.113-9.468-11.384-0.252-22.628 2.536-32.574 8.080s-18.233 13.64-24.006 23.456c-5.773 9.812-8.823 20.992-8.836 32.376v704.071c0.012 11.386 3.062 22.563 8.836 32.378s14.060 17.911 24.006 23.454zM912.4 475.2l-16.5-26.984c0.068 0.044 0.14 0.088 0.212 0.128-0.060-0.036-0.108-0.084-0.144-0.144-0.036-0.064-0.052-0.132-0.052-0.2s0.016-0.136 0.052-0.2c0.036-0.060 0.084-0.108 0.144-0.144l16.288 27.544zM895.54 448l-575.54 351.965v-703.929l0.105 0.064 575.435 351.9z" />
<glyph unicode="&#xe91a;" glyph-name="play-circle" d="M512 800c-194.404 0-352-157.596-352-352s157.596-352 352-352c194.404 0 352 157.596 352 352s-157.596 352-352 352zM96 448c0 229.75 186.25 416 416 416 229.752 0 416-186.25 416-416 0-229.752-186.248-416-416-416-229.75 0-416 186.248-416 416zM432.9 604.214c10.404 5.568 23.032 4.958 32.852-1.588l192-128.002c8.9-5.932 14.248-15.924 14.248-26.624s-5.348-20.692-14.248-26.624l-192-128c-9.82-6.548-22.448-7.16-32.852-1.588-10.404 5.568-16.9 16.412-16.9 28.212v256c0 11.802 6.496 22.645 16.9 28.214zM480 516.208v-136.416l102.312 68.208-102.312 68.208z" />
<glyph unicode="&#xe91b;" glyph-name="plus" d="M128 448c0 17.672 14.327 32 32 32h704c17.672 0 32-14.328 32-32s-14.328-32-32-32h-704c-17.673 0-32 14.328-32 32zM512 832c17.672 0 32-14.327 32-32v-704c0-17.672-14.328-32-32-32s-32 14.328-32 32v704c0 17.673 14.328 32 32 32z" />
<glyph unicode="&#xe91c;" glyph-name="plus-circle-1" d="M512 800c-194.404 0-352-157.596-352-352s157.596-352 352-352c194.404 0 352 157.596 352 352s-157.596 352-352 352zM96 448c0 229.75 186.25 416 416 416 229.752 0 416-186.25 416-416 0-229.752-186.248-416-416-416-229.75 0-416 186.248-416 416zM320 448c0 17.672 14.327 32 32 32h320c17.672 0 32-14.328 32-32s-14.328-32-32-32h-320c-17.673 0-32 14.328-32 32zM512 640c17.672 0 32-14.327 32-32v-320c0-17.672-14.328-32-32-32s-32 14.328-32 32v320c0 17.673 14.328 32 32 32z" />
<glyph unicode="&#xe91d;" glyph-name="share-network" d="M256 544c-53.019 0-96-42.98-96-96s42.981-96 96-96c53.019 0 96 42.98 96 96s-42.981 96-96 96zM96 448c0 88.364 71.634 160 160 160s160-71.636 160-160c0-88.364-71.634-160-160-160s-160 71.636-160 160zM704 256c-53.020 0-96-42.98-96-96s42.98-96 96-96c53.020 0 96 42.98 96 96s-42.98 96-96 96zM544 160c0 88.364 71.636 160 160 160s160-71.636 160-160c0-88.364-71.636-160-160-160s-160 71.636-160 160zM704 832c-53.020 0-96-42.981-96-96s42.98-96 96-96c53.020 0 96 42.981 96 96s-42.98 96-96 96zM544 736c0 88.366 71.636 160 160 160s160-71.634 160-160c0-88.366-71.636-160-160-160s-160 71.634-160 160zM623.32 684.1c9.556-14.868 5.248-34.666-9.62-44.22l-232.801-149.599c-14.868-9.556-34.666-5.248-44.22 9.62s-5.247 34.668 9.621 44.22l232.8 149.601c14.868 9.554 34.668 5.247 44.22-9.621zM336.679 396.1c9.554 14.868 29.352 19.176 44.22 9.62l232.801-149.6c14.868-9.552 19.176-29.352 9.62-44.22-9.552-14.868-29.352-19.176-44.22-9.62l-232.8 149.6c-14.868 9.552-19.175 29.352-9.621 44.22z" />
<glyph unicode="&#xe91e;" glyph-name="squares-four" d="M160 768c0 17.673 14.327 32 32 32h256c17.672 0 32-14.327 32-32v-256c0-17.672-14.328-32-32-32h-256c-17.673 0-32 14.328-32 32v256zM224 736v-192h192v192h-192zM544 768c0 17.673 14.328 32 32 32h256c17.672 0 32-14.327 32-32v-256c0-17.672-14.328-32-32-32h-256c-17.672 0-32 14.328-32 32v256zM608 736v-192h192v192h-192zM160 384c0 17.672 14.327 32 32 32h256c17.672 0 32-14.328 32-32v-256c0-17.672-14.328-32-32-32h-256c-17.673 0-32 14.328-32 32v256zM224 352v-192h192v192h-192zM544 384c0 17.672 14.328 32 32 32h256c17.672 0 32-14.328 32-32v-256c0-17.672-14.328-32-32-32h-256c-17.672 0-32 14.328-32 32v256zM608 352v-192h192v192h-192z" />
<glyph unicode="&#xe91f;" glyph-name="thumbs-down" d="M82.745 781.255c12.002 12.002 28.281 18.745 45.255 18.745h192c17.673 0 32-14.327 32-32v-416c0-17.672-14.327-32-32-32h-192c-16.974 0-33.252 6.744-45.255 18.744-12.002 12.004-18.745 28.284-18.745 45.256v352c0 16.974 6.743 33.252 18.745 45.255zM128 736v-352h160v352h-160zM288 768c0 17.673 14.327 32 32 32h487.748c23.308-0.108 45.776-8.691 63.22-24.147s28.668-36.73 31.58-59.853l47.992-383.912c1.772-13.476 0.656-27.176-3.284-40.188-3.952-13.056-10.652-25.116-19.652-35.368-8.996-10.248-20.088-18.456-32.52-24.068-12.416-5.604-25.884-8.488-39.508-8.464h-215.576v-64c0-42.436-16.856-83.132-46.864-113.136-30.004-30.008-70.7-46.864-113.136-46.864-12.12 0-23.2 6.848-28.62 17.688l-160.002 320c-7.904 15.808-1.496 35.032 14.311 42.932 15.808 7.904 35.029 1.5 42.933-14.308l150.222-300.444c18.44 3.692 35.544 12.752 49.040 26.248 18 18.004 28.116 42.424 28.116 67.884v96c0 17.672 14.328 32 32 32h247.68c4.508-0.012 8.968 0.944 13.076 2.796 4.112 1.856 7.776 4.568 10.752 7.956 2.972 3.392 5.188 7.376 6.492 11.692 1.308 4.316 1.676 8.86 1.080 13.328l-0.032 0.26-47.996 383.968c-0.972 7.708-4.712 14.799-10.528 19.951-5.8 5.138-13.264 7.998-21.012 8.049h-487.512c-17.673 0-32 14.327-32 32z" />
<glyph unicode="&#xe920;" glyph-name="thumbs-up" d="M82.745 557.256c12.002 12.001 28.281 18.744 45.255 18.744h192c17.673 0 32-14.327 32-32v-416c0-17.672-14.327-32-32-32h-192c-16.974 0-33.252 6.744-45.255 18.744-12.002 12.004-18.745 28.284-18.745 45.256v352c0 16.972 6.743 33.252 18.745 45.256zM128 512v-352h160v352h-160zM451.38 878.311c5.42 10.841 16.5 17.689 28.62 17.689 42.436 0 83.132-16.857 113.136-46.863 30.008-30.006 46.864-70.702 46.864-113.137v-64h215.56c13.628 0.028 27.104-2.858 39.524-8.464 12.432-5.612 23.524-13.819 32.52-24.070 9-10.251 15.7-22.31 19.652-35.366 3.94-13.011 5.056-26.713 3.284-40.19l-47.992-383.911c-2.912-23.124-14.136-44.396-31.58-59.852s-39.912-24.040-63.22-24.148h-487.748c-17.673 0-32 14.328-32 32s14.327 32 32 32h487.516c7.744 0.052 15.208 2.912 21.008 8.048 5.816 5.152 9.556 12.244 10.528 19.952l48.028 384.226c0.596 4.47 0.228 9.014-1.080 13.33-1.304 4.315-3.52 8.301-6.492 11.69-2.976 3.388-6.64 6.101-10.752 7.956-4.108 1.855-8.568 2.809-13.076 2.798h-247.68c-17.672 0-32 14.327-32 32v96c0 25.461-10.116 49.879-28.116 67.882-13.496 13.496-30.6 22.558-49.040 26.25l-150.222-300.445c-7.904-15.808-27.125-22.212-42.933-14.308-15.807 7.9-22.214 27.124-14.311 42.932l160.002 319.999z" />
<glyph unicode="&#xe921;" glyph-name="twitter-logo" d="M673.564 736.003c-70.108 0.956-129.564-57.795-129.564-128.003v-64c0-9.408-4.14-18.336-11.316-24.416s-16.664-8.696-25.944-7.148c-102.564 17.092-195.056 67.948-260.868 113.195-24.346 16.738-45.337 32.914-62.174 46.703-11.484-135.058 29.13-228.37 74.064-289.35 25.84-35.068 53.519-59.968 74.615-76.016 10.53-8.012 19.356-13.772 25.394-17.452 3.016-1.836 5.329-3.148 6.8-3.96 0.735-0.404 1.259-0.68 1.555-0.836 0.148-0.080 0.239-0.124 0.27-0.14l-0.055 0.028c-0.015 0.004-0.031 0.012-14.342-28.608l14.311 28.62c0.029-0.012 0.057-0.028 0.086-0.040 8.166-4.116 14.184-11.528 16.531-20.368 2.356-8.868 0.789-18.324-4.302-25.964-35.762-53.64-88.319-92.58-130.162-117.688-7.473-4.484-14.681-8.572-21.488-12.264 20.514-6.64 50.462-12.296 93.024-12.296h0.016c121.916-0.060 239.28 46.312 328.228 129.688s142.804 197.5 150.624 319.164c0.496 7.76 3.804 15.076 9.304 20.576l74.572 74.572h-63.944c-12.724 0-24.24 7.539-29.328 19.202-9.86 22.598-26.040 41.868-46.588 55.492-20.552 13.624-44.6 21.024-69.252 21.308l-0.068 0.001zM160 112c-26.626-17.752-26.61-17.776-26.593-17.8l0.033-0.048 0.069-0.104 0.149-0.216c0.104-0.152 0.218-0.316 0.341-0.488 0.246-0.348 0.532-0.74 0.859-1.172 0.654-0.868 1.472-1.896 2.47-3.060 1.998-2.332 4.71-5.2 8.264-8.396 7.131-6.42 17.517-14.048 32.096-21.336 29.218-14.612 74.284-27.376 142.295-27.38zM148.764 141.964c-0.008-0.004-0.016-0.008-0.024-0.012-9.132-3.432-16.2-10.844-19.195-20.128-2.998-9.296-1.587-19.448 3.83-27.576l26.626 17.752zM148.764 141.964l0.134 0.048c0.164 0.064 0.446 0.172 0.84 0.328 0.787 0.312 2.020 0.804 3.652 1.48 3.267 1.352 8.123 3.428 14.2 6.236 12.179 5.62 29.126 14.092 47.946 25.384 29.908 17.944 63.064 42.136 89.6 72.152-3.622 2.556-7.474 5.368-11.513 8.44-24.904 18.952-57.224 48.052-87.385 88.984-60.903 82.656-111.394 211.512-77.722 396.708 2.129 11.71 10.582 21.271 21.942 24.82 11.354 3.547 23.738 0.503 32.154-7.902 0.005-0.005 0.010-0.010 0.015-0.015l-22.627-22.628c22.627 22.628 22.622 22.632 22.618 22.637l0.036-0.036 0.257-0.253c0.246-0.243 0.644-0.632 1.188-1.159 1.089-1.054 2.764-2.658 4.996-4.742 4.464-4.17 11.142-10.254 19.786-17.697 17.308-14.904 42.386-35.162 73.248-56.38 53.46-36.754 122.675-75.274 197.871-94.832v24.463c0 105.781 88.524 193.422 194.404 191.998 36.968-0.433 73.028-11.532 103.844-31.962 24.824-16.458 45.396-38.408 60.188-64.036h121.564c12.944 0 24.612-7.796 29.564-19.754s2.216-25.722-6.936-34.873l-120.816-120.813c-11.576-133.32-71.956-257.852-169.8-349.564-100.816-94.5-233.832-147.060-372.012-146.996z" />
<glyph unicode="&#xe922;" glyph-name="x" d="M822.628 758.628c12.496-12.497 12.496-32.758 0-45.255l-576-576c-12.497-12.496-32.758-12.496-45.255 0s-12.496 32.76 0 45.256l576 576c12.496 12.496 32.76 12.496 45.256 0zM201.372 758.628c12.497 12.496 32.758 12.496 45.255 0l576-576c12.496-12.496 12.496-32.76 0-45.256s-32.76-12.496-45.256 0l-576 576c-12.496 12.497-12.496 32.758 0 45.255z" />
<glyph unicode="&#xe923;" glyph-name="x-circle" d="M512 800c-194.404 0-352-157.596-352-352s157.596-352 352-352c194.404 0 352 157.596 352 352s-157.596 352-352 352zM96 448c0 229.75 186.25 416 416 416 229.752 0 416-186.25 416-416 0-229.752-186.248-416-416-416-229.75 0-416 186.248-416 416zM662.628 598.628c12.496-12.497 12.496-32.758 0-45.256l-256-256c-12.497-12.496-32.759-12.496-45.256 0s-12.496 32.76 0 45.256l256 256c12.496 12.496 32.76 12.496 45.256 0zM361.372 598.628c12.497 12.496 32.758 12.496 45.256 0l256-256c12.496-12.496 12.496-32.76 0-45.256s-32.76-12.496-45.256 0l-256 256c-12.496 12.497-12.496 32.759 0 45.256z" />
<glyph unicode="&#xe924;" glyph-name="x-square" d="M662.628 598.628c12.496-12.497 12.496-32.758 0-45.256l-256-256c-12.497-12.496-32.759-12.496-45.256 0s-12.496 32.76 0 45.256l256 256c12.496 12.496 32.76 12.496 45.256 0zM361.372 598.628c12.497 12.496 32.758 12.496 45.256 0l256-256c12.496-12.496 12.496-32.76 0-45.256s-32.76-12.496-45.256 0l-256 256c-12.496 12.497-12.496 32.759 0 45.256zM128 768c0 35.346 28.654 64 64 64h640c35.348 0 64-28.654 64-64v-640c0-35.348-28.652-64-64-64h-640c-35.346 0-64 28.652-64 64v640zM832 768h-640v-640h640v640z" />
<glyph unicode="&#xe925;" glyph-name="tag" d="M484.652 887.804c10.308 2.018 20.952 1.468 31-1.601 10.040-3.068 19.168-8.557 26.588-15.986 0.004-0.004 0.008-0.009 0.012-0.013l417.468-417.468c5.988-5.892 10.752-12.916 14.012-20.66 3.288-7.812 4.984-16.2 4.984-24.676s-1.696-16.864-4.984-24.676c-3.26-7.744-8.024-14.768-14.012-20.66l-361.784-361.784c-5.892-5.988-12.916-10.752-20.66-14.012-7.812-3.288-16.2-4.984-24.676-4.984s-16.864 1.696-24.676 4.984c-7.744 3.26-14.768 8.024-20.66 14.012l-417.468 417.468c-0.004 0.004-0.009 0.008-0.013 0.012-7.428 7.42-12.918 16.548-15.986 26.588-3.070 10.048-3.619 20.692-1.601 31l0.022 0.112 64.4 322.8c2.53 12.68 12.441 22.591 25.121 25.121l322.8 64.4 6.26-31.382-6.148 31.404zM496.948 824.996l-301.744-60.2-60.2-301.744 417.596-417.596 361.944 361.944-417.596 417.596zM336 576c26.51 0 48 21.49 48 48s-21.49 48-48 48c-26.51 0-48-21.49-48-48s21.49-48 48-48z" />
</font>
</defs>
</svg>
